Atomic.Blonde.2017.KORSUB.720p.HDRip.H264.AAC-JAYENT

  • Category Movies
  • Type HD
  • Language English
  • Total size 1.8 GB
  • Uploaded By MrStark
  • Downloads 5763
  • Last checked 5 days ago
  • Date uploaded 1 week ago
  • Seeders 191
  • Leechers 18

Atomic Blonde

Thriller

An undercover MI6 agent is sent to Berlin during the Cold War to investigate the murder of a fellow agent and recover a missing list of double agents.

Infohash : 78D04F286950FAEB65AAEB79F7CF7E4ECF8DD48B







Summary : An undercover MI6 agent is sent to Berlin during the Cold War to investigate the murder of a fellow agent and recover a missing list of double agents.



General
Complete name                            : Atomic.Blonde.2017.KOR.720p.HDRip.H264.AAC.JAYENT.mp4
Format                                   : MPEG-4
Format profile                           : Base Media
Codec ID                                 : isom (mp41)
File size                                : 1.76 GiB
Duration                                 : 1 h 54 min
Overall bit rate mode                    : Variable
Overall bit rate                         : 2 188 kb/s
Encoded date                             : UTC 1970-01-01 00:00:00
Tagged date                              : UTC 1970-01-01 00:00:00
Writing application                      : PotEncoder

Video
ID                                       : 1
Format                                   : AVC
Format/Info                              : Advanced Video Codec
Format profile                           : [email protected]
Format settings                          : 1 Ref Frames
Format settings, CABAC                   : No
Format settings, RefFrames               : 1 frame
Codec ID                                 : avc1
Codec ID/Info                            : Advanced Video Coding
Duration                                 : 1 h 54 min
Bit rate                                 : 2 019 kb/s
Width                                    : 1 280 pixels
Height                                   : 720 pixels
Display aspect ratio                     : 16:9
Frame rate mode                          : Constant
Frame rate                               : 23.976 FPS
Color space                              : YUV
Chroma subsampling                       : 4:2:0
Bit depth                                : 8 bits
Scan type                                : Progressive
Bits/(Pixel*Frame)                       : 0.091
Stream size                              : 1.62 GiB (92%)
Encoded date                             : UTC 1970-01-01 00:00:00
Tagged date                              : UTC 1970-01-01 00:00:00

Audio
ID                                       : 2
Format                                   : AAC
Format/Info                              : Advanced Audio Codec
Format profile                           : LC
Codec ID                                 : mp4a-40-2
Duration                                 : 1 h 54 min
Bit rate mode                            : Variable
Bit rate                                 : 165 kb/s
Channel(s)                               : 2 channels
Channel positions                        : Front: L R
Sampling rate                            : 48.0 kHz
Frame rate                               : 46.875 FPS (1024 SPF)
Compression mode                         : Lossy
Stream size                              : 136 MiB (8%)
Encoded date                             : UTC 1970-01-01 00:00:00
Tagged date                              : UTC 1970-01-01 00:00:00

Note : Does have hardcoded Korean subtitles



Click on Thumbnails to view full size images



Thanks to the original encoder and uploader


Files:

  • Atomic.Blonde.2017.KOR.720p.HDRip.H264.AAC-JAYENT.mp4 (1.8 GB)

There are currently no comments. Feel free to leave one :)

Code:

  • udp://tracker.opentrackr.org:1337/announce
  • udp://opentrackr.org:1337/announce
  • udp://tracker.leechers-paradise.org:6969/announce
  • udp://eddie4.nl:6969/announce
  • udp://9.rarbg.me:2720/announce
  • udp://bt.xxx-tracker.com:2710/announce
  • udp://62.212.85.66:2710/announce
  • udp://public.popcorn-tracker.org:6969/announce
  • udp://tracker.grepler.com:6969/announce
  • http://mgtracker.org:2710/announce
  • http://tracker.kamigami.org:2710/announce
  • http://tracker.mg64.net:6881/announce